  0
SECTION
  2
HEADER
  9
$ACADVER
  1
AC1015
  9
$ACADMAINTVER
 70
    20
  9
$DWGCODEPAGE
  3
ANSI_1252
  9
$INSBASE
 10
0.0
 20
0.0
 30
0.0
  9
$EXTMIN
 10
4.93961901677605
 20
3.968933548985573
 30
0.0
  9
$EXTMAX
 10
8.494363640956159
 20
6.954832001936824
 30
0.0
  9
$LIMMIN
 10
0.0
 20
0.0
  9
$LIMMAX
 10
12.0
 20
9.0
  9
$ORTHOMODE
 70
     1
  9
$REGENMODE
 70
     1
  9
$FILLMODE
 70
     1
  9
$QTEXTMODE
 70
     0
  9
$MIRRTEXT
 70
     1
  9
$LTSCALE
 40
1.0
  9
$ATTMODE
 70
     1
  9
$TEXTSIZE
 40
0.2
  9
$TRACEWID
 40
0.05
  9
$TEXTSTYLE
  7
Standard
  9
$CLAYER
  8
0
  9
$CELTYPE
  6
ByLayer
  9
$CECOLOR
 62
   256
  9
$CELTSCALE
 40
1.0
  9
$DISPSILH
 70
     0
  9
$DIMSCALE
 40
1.0
  9
$DIMASZ
 40
0.18
  9
$DIMEXO
 40
0.0625
  9
$DIMDLI
 40
0.38
  9
$DIMRND
 40
0.0
  9
$DIMDLE
 40
0.0
  9
$DIMEXE
 40
0.18
  9
$DIMTP
 40
0.0
  9
$DIMTM
 40
0.0
  9
$DIMTXT
 40
0.18
  9
$DIMCEN
 40
0.09
  9
$DIMTSZ
 40
0.0
  9
$DIMTOL
 70
     0
  9
$DIMLIM
 70
     0
  9
$DIMTIH
 70
     1
  9
$DIMTOH
 70
     1
  9
$DIMSE1
 70
     0
  9
$DIMSE2
 70
     0
  9
$DIMTAD
 70
     0
  9
$DIMZIN
 70
     0
  9
$DIMBLK
  1

  9
$DIMASO
 70
     1
  9
$DIMSHO
 70
     1
  9
$DIMPOST
  1

  9
$DIMAPOST
  1

  9
$DIMALT
 70
     0
  9
$DIMALTD
 70
     2
  9
$DIMALTF
 40
25.4
  9
$DIMLFAC
 40
1.0
  9
$DIMTOFL
 70
     0
  9
$DIMTVP
 40
0.0
  9
$DIMTIX
 70
     0
  9
$DIMSOXD
 70
     0
  9
$DIMSAH
 70
     0
  9
$DIMBLK1
  1

  9
$DIMBLK2
  1

  9
$DIMSTYLE
  2
Standard
  9
$DIMCLRD
 70
     0
  9
$DIMCLRE
 70
     0
  9
$DIMCLRT
 70
     0
  9
$DIMTFAC
 40
1.0
  9
$DIMGAP
 40
0.09
  9
$DIMJUST
 70
     0
  9
$DIMSD1
 70
     0
  9
$DIMSD2
 70
     0
  9
$DIMTOLJ
 70
     1
  9
$DIMTZIN
 70
     0
  9
$DIMALTZ
 70
     0
  9
$DIMALTTZ
 70
     0
  9
$DIMUPT
 70
     0
  9
$DIMDEC
 70
     2
  9
$DIMTDEC
 70
     2
  9
$DIMALTU
 70
     2
  9
$DIMALTTD
 70
     2
  9
$DIMTXSTY
  7
Standard
  9
$DIMAUNIT
 70
     0
  9
$DIMADEC
 70
     0
  9
$DIMALTRND
 40
0.0
  9
$DIMAZIN
 70
     0
  9
$DIMDSEP
 70
    46
  9
$DIMATFIT
 70
     3
  9
$DIMFRAC
 70
     0
  9
$DIMLDRBLK
  1

  9
$DIMLUNIT
 70
     2
  9
$DIMLWD
 70
    -2
  9
$DIMLWE
 70
    -2
  9
$DIMTMOVE
 70
     0
  9
$LUNITS
 70
     2
  9
$LUPREC
 70
     4
  9
$SKETCHINC
 40
0.1
  9
$FILLETRAD
 40
0.5
  9
$AUNITS
 70
     0
  9
$AUPREC
 70
     0
  9
$MENU
  1
.
  9
$ELEVATION
 40
0.0
  9
$PELEVATION
 40
0.0
  9
$THICKNESS
 40
0.0
  9
$LIMCHECK
 70
     0
  9
$CHAMFERA
 40
0.5
  9
$CHAMFERB
 40
0.5
  9
$CHAMFERC
 40
1.0
  9
$CHAMFERD
 40
0.0
  9
$SKPOLY
 70
     0
  9
$TDCREATE
 40
2453892.313050417
  9
$TDUCREATE
 40
2453892.479717083
  9
$TDUPDATE
 40
2453892.325509005
  9
$TDUUPDATE
 40
2453892.492175671
  9
$TDINDWG
 40
0.0033984375
  9
$TDUSRTIMER
 40
0.0033984375
  9
$USRTIMER
 70
     1
  9
$ANGBASE
 50
0.0
  9
$ANGDIR
 70
     0
  9
$PDMODE
 70
     0
  9
$PDSIZE
 40
0.0
  9
$PLINEWID
 40
0.0
  9
$SPLFRAME
 70
     0
  9
$SPLINETYPE
 70
     6
  9
$SPLINESEGS
 70
     8
  9
$HANDSEED
  5
156
  9
$SURFTAB1
 70
     6
  9
$SURFTAB2
 70
     6
  9
$SURFTYPE
 70
     6
  9
$SURFU
 70
     6
  9
$SURFV
 70
     6
  9
$UCSBASE
  2

  9
$UCSNAME
  2

  9
$UCSORG
 10
0.0
 20
0.0
 30
0.0
  9
$UCSXDIR
 10
1.0
 20
0.0
 30
0.0
  9
$UCSYDIR
 10
0.0
 20
1.0
 30
0.0
  9
$UCSORTHOREF
  2

  9
$UCSORTHOVIEW
 70
     0
  9
$UCSORGTOP
 10
0.0
 20
0.0
 30
0.0
  9
$UCSORGBOTTOM
 10
0.0
 20
0.0
 30
0.0
  9
$UCSORGLEFT
 10
0.0
 20
0.0
 30
0.0
  9
$UCSORGRIGHT
 10
0.0
 20
0.0
 30
0.0
  9
$UCSORGFRONT
 10
0.0
 20
0.0
 30
0.0
  9
$UCSORGBACK
 10
0.0
 20
0.0
 30
0.0
  9
$PUCSBASE
  2

  9
$PUCSNAME
  2

  9
$PUCSORG
 10
0.0
 20
0.0
 30
0.0
  9
$PUCSXDIR
 10
1.0
 20
0.0
 30
0.0
  9
$PUCSYDIR
 10
0.0
 20
1.0
 30
0.0
  9
$PUCSORTHOREF
  2

  9
$PUCSORTHOVIEW
 70
     0
  9
$PUCSORGTOP
 10
0.0
 20
0.0
 30
0.0
  9
$PUCSORGBOTTOM
 10
0.0
 20
0.0
 30
0.0
  9
$PUCSORGLEFT
 10
0.0
 20
0.0
 30
0.0
  9
$PUCSORGRIGHT
 10
0.0
 20
0.0
 30
0.0
  9
$PUCSORGFRONT
 10
0.0
 20
0.0
 30
0.0
  9
$PUCSORGBACK
 10
0.0
 20
0.0
 30
0.0
  9
$USERI1
 70
     0
  9
$USERI2
 70
     0
  9
$USERI3
 70
     0
  9
$USERI4
 70
     0
  9
$USERI5
 70
     0
  9
$USERR1
 40
0.0
  9
$USERR2
 40
0.0
  9
$USERR3
 40
0.0
  9
$USERR4
 40
0.0
  9
$USERR5
 40
0.0
  9
$WORLDVIEW
 70
     1
  9
$SHADEDGE
 70
     3
  9
$SHADEDIF
 70
    70
  9
$TILEMODE
 70
     1
  9
$MAXACTVP
 70
    64
  9
$PINSBASE
 10
0.0
 20
0.0
 30
0.0
  9
$PLIMCHECK
 70
     0
  9
$PEXTMIN
 10
1.000000000000000E+20
 20
1.000000000000000E+20
 30
1.000000000000000E+20
  9
$PEXTMAX
 10
-1.000000000000000E+20
 20
-1.000000000000000E+20
 30
-1.000000000000000E+20
  9
$PLIMMIN
 10
0.0
 20
0.0
  9
$PLIMMAX
 10
12.0
 20
9.0
  9
$UNITMODE
 70
     0
  9
$VISRETAIN
 70
     1
  9
$PLINEGEN
 70
     0
  9
$PSLTSCALE
 70
     1
  9
$TREEDEPTH
 70
  3020
  9
$CMLSTYLE
  2
Standard
  9
$CMLJUST
 70
     0
  9
$CMLSCALE
 40
1.0
  9
$PROXYGRAPHICS
 70
     1
  9
$MEASUREMENT
 70
     0
  9
$CELWEIGHT
370
    -1
  9
$ENDCAPS
280
     0
  9
$JOINSTYLE
280
     0
  9
$LWDISPLAY
290
     0
  9
$INSUNITS
 70
     1
  9
$HYPERLINKBASE
  1

  9
$STYLESHEET
  1

  9
$XEDIT
290
     1
  9
$CEPSNTYPE
380
     0
  9
$PSTYLEMODE
290
     1
  9
$FINGERPRINTGUID
  2
{6943DA0C-284D-4DB2-AD46-E4B02424A83B}
  9
$VERSIONGUID
  2
{2459CAB5-7156-4FFD-B9FA-3E6CAE44886A}
  9
$EXTNAMES
290
     1
  9
$PSVPSCALE
 40
0.0
  9
$OLESTARTUP
290
     0
  0
ENDSEC
  0
SECTION
  2
CLASSES
  0
CLASS
  1
ACDBDICTIONARYWDFLT
  2
AcDbDictionaryWithDefault
  3
ObjectDBX Classes
 90
        0
280
     0
281
     0
  0
CLASS
  1
ACDBPLACEHOLDER
  2
AcDbPlaceHolder
  3
ObjectDBX Classes
 90
        0
280
     0
281
     0
  0
CLASS
  1
LAYOUT
  2
AcDbLayout
  3
ObjectDBX Classes
 90
        0
280
     0
281
     0
  0
CLASS
  1
TABLESTYLE
  2
AcDbTableStyle
  3
ObjectDBX Classes
 90
     2047
280
     0
281
     0
  0
CLASS
  1
SORTENTSTABLE
  2
AcDbSortentsTable
  3
ObjectDBX Classes
 90
    32768
280
     0
281
     0
  0
CLASS
  1
DICTIONARYVAR
  2
AcDbDictionaryVar
  3
ObjectDBX Classes
 90
        0
280
     0
281
     0
  0
ENDSEC
  0
SECTION
  2
TABLES
  0
TABLE
  2
VPORT
  5
8
330
0
100
AcDbSymbolTable
 70
     4
  0
VPORT
  5
14E
330
8
100
AcDbSymbolTableRecord
100
AcDbViewportTableRecord
  2
*Active
 70
     0
 10
0.0
 20
0.0
 11
1.0
 21
1.0
 12
6.825463015080782
 22
5.385224581814453
 13
0.0
 23
0.0
 14
0.5
 24
0.5
 15
0.5
 25
0.5
 16
0.0
 26
0.0
 36
1.0
 17
0.0
 27
0.0
 37
0.0
 40
4.139926832532569
 41
1.466327827191867
 42
50.0
 43
0.0
 44
0.0
 50
0.0
 51
0.0
 71
     0
 72
   100
 73
     1
 74
     3
 75
     0
 76
     0
 77
     0
 78
     0
281
     0
 65
     1
110
0.0
120
0.0
130
0.0
111
1.0
121
0.0
131
0.0
112
0.0
122
1.0
132
0.0
 79
     0
146
0.0
  0
ENDTAB
  0
TABLE
  2
LTYPE
  5
5
330
0
100
AcDbSymbolTable
 70
     1
  0
LTYPE
  5
14
330
5
100
AcDbSymbolTableRecord
100
AcDbLinetypeTableRecord
  2
ByBlock
 70
     0
  3

 72
    65
 73
     0
 40
0.0
  0
LTYPE
  5
15
330
5
100
AcDbSymbolTableRecord
100
AcDbLinetypeTableRecord
  2
ByLayer
 70
     0
  3

 72
    65
 73
     0
 40
0.0
  0
LTYPE
  5
16
330
5
100
AcDbSymbolTableRecord
100
AcDbLinetypeTableRecord
  2
Continuous
 70
     0
  3
Solid line
 72
    65
 73
     0
 40
0.0
  0
ENDTAB
  0
TABLE
  2
LAYER
  5
2
102
{ACAD_XDICTIONARY
360
DA
102
}
330
0
100
AcDbSymbolTable
 70
     5
  0
LAYER
  5
10
330
2
100
AcDbSymbolTableRecord
100
AcDbLayerTableRecord
  2
0
 70
     0
 62
     7
  6
Continuous
370
    -3
390
F
  0
LAYER
  5
34
330
2
100
AcDbSymbolTableRecord
100
AcDbLayerTableRecord
  2
L
 70
     0
 62
     7
  6
Continuous
370
    -3
390
F
  0
LAYER
  5
45
330
2
100
AcDbSymbolTableRecord
100
AcDbLayerTableRecord
  2
Defpoints
 70
     0
 62
     7
  6
Continuous
290
     0
370
    -3
390
F
  0
LAYER
  5
88
330
2
100
AcDbSymbolTableRecord
100
AcDbLayerTableRecord
  2
tx
 70
     0
 62
   150
  6
Continuous
370
    -3
390
F
  0
LAYER
  5
D2
330
2
100
AcDbSymbolTableRecord
100
AcDbLayerTableRecord
  2
MAIN
 70
     0
 62
     7
  6
Continuous
370
    -3
390
F
  0
ENDTAB
  0
TABLE
  2
STYLE
  5
3
330
0
100
AcDbSymbolTable
 70
     6
  0
STYLE
  5
11
330
3
100
AcDbSymbolTableRecord
100
AcDbTextStyleTableRecord
  2
Standard
 70
     0
 40
0.0
 41
1.0
 50
0.0
 71
     0
 42
0.2
  3
txt
  4

  0
STYLE
  5
35
330
3
100
AcDbSymbolTableRecord
100
AcDbTextStyleTableRecord
  2
REG
 70
     0
 40
0.0
 41
1.0
 50
0.0
 71
     0
 42
0.09375
  3
E:\R13\com\fonts\ARCHITXT.SHX
  4

  0
STYLE
  5
36
330
3
100
AcDbSymbolTableRecord
100
AcDbTextStyleTableRecord
  2
DIMTXT
 70
     0
 40
0.0
 41
1.0
 50
0.0
 71
     0
 42
1.125
  3
archt.shx
  4

  0
STYLE
  5
D3
330
3
100
AcDbSymbolTableRecord
100
AcDbTextStyleTableRecord
  2
BLD
 70
     0
 40
0.0
 41
1.0
 50
0.0
 71
     0
 42
0.09375
  3
romand.shx
  4

  0
STYLE
  5
D4
330
3
100
AcDbSymbolTableRecord
100
AcDbTextStyleTableRecord
  2
REG2
 70
     0
 40
0.0
 41
0.9
 50
0.0
 71
     0
 42
0.75
  3
E:\R13\com\fonts\romans.shx
  4

  0
STYLE
  5
D5
330
3
100
AcDbSymbolTableRecord
100
AcDbTextStyleTableRecord
  2
ROM2
 70
     0
 40
0.0
 41
0.95
 50
0.0
 71
     0
 42
1.0
  3
ROMANS
  4

  0
ENDTAB
  0
TABLE
  2
VIEW
  5
6
330
0
100
AcDbSymbolTable
 70
     0
  0
ENDTAB
  0
TABLE
  2
UCS
  5
7
330
0
100
AcDbSymbolTable
 70
     0
  0
ENDTAB
  0
TABLE
  2
APPID
  5
9
330
0
100
AcDbSymbolTable
 70
     1
  0
APPID
  5
12
330
9
100
AcDbSymbolTableRecord
100
AcDbRegAppTableRecord
  2
ACAD
 70
     0
  0
ENDTAB
  0
TABLE
  2
DIMSTYLE
  5
A
330
0
100
AcDbSymbolTable
 70
    10
100
AcDbDimStyleTable
 71
     1
340
27
  0
DIMSTYLE
105
27
102
{ACAD_REACTORS
330
12E
330
13C
102
}
330
A
100
AcDbSymbolTableRecord
100
AcDbDimStyleTableRecord
  2
Standard
 70
     0
271
     2
272
     2
340
11
  0
DIMSTYLE
105
37
330
A
100
AcDbSymbolTableRecord
100
AcDbDimStyleTableRecord
  2
1
 70
     0
 41
1.125
 42
0.5
 43
0.375
 44
1.19921875
 46
0.5
 73
     0
 74
     0
 77
     1
 78
     3
140
1.125
141
0.125
146
0.8
147
0.5625
172
     1
174
     1
176
   133
177
   133
178
   150
271
     3
272
     3
276
     1
279
     1
340
36
  0
DIMSTYLE
105
38
330
A
100
AcDbSymbolTableRecord
100
AcDbDimStyleTableRecord
  2
1$2
 70
     0
 41
1.5
 42
0.5
 43
0.375
 44
1.19921875
 46
0.5
 73
     0
 74
     0
 77
     1
 78
     3
140
0.75
141
0.125
146
0.8
147
0.5625
172
     1
174
     1
176
   133
177
   133
178
   150
271
     3
272
     3
276
     1
279
     1
340
36
342
30
  0
DIMSTYLE
105
39
330
A
100
AcDbSymbolTableRecord
100
AcDbDimStyleTableRecord
  2
1$4
 70
     0
 41
1.5
 42
0.5
 43
0.375
 44
1.19921875
 46
0.5
 73
     0
 74
     0
 77
     1
 78
     3
140
0.75
141
0.125
146
0.8
147
0.5625
172
     1
173
     1
174
     1
176
   133
177
   133
178
   150
271
     3
272
     3
276
     1
279
     1
340
36
344
30
  0
DIMSTYLE
105
3A
330
A
100
AcDbSymbolTableRecord
100
AcDbDimStyleTableRecord
  2
1$3
 70
     0
 41
1.5
 42
0.5
 43
0.375
 44
1.19921875
 46
0.5
 73
     0
 74
     0
 77
     1
 78
     3
140
0.75
141
0.125
146
0.8
147
0.5625
172
     1
174
     1
176
   133
177
   133
178
   150
271
     3
272
     3
276
     1
279
     1
340
36
342
30
  0
DIMSTYLE
105
3B
330
A
100
AcDbSymbolTableRecord
100
AcDbDimStyleTableRecord
  2
1$7
 70
     0
 41
1.0
 42
0.5
 43
0.375
 44
1.19921875
 46
0.5
 73
     0
 74
     0
 77
     1
 78
     3
140
0.75
141
0.125
146
0.8
147
0.5625
172
     1
174
     1
176
   133
177
   133
178
   150
271
     3
272
     3
276
     1
279
     1
340
36
341
2B
  0
DIMSTYLE
105
D6
330
A
100
AcDbSymbolTableRecord
100
AcDbDimStyleTableRecord
  2
Standard$2
 70
     0
 40
0.0
 41
0.625
 42
0.5
 43
0.375
 44
0.375
 78
     4
 79
     1
140
0.625
141
0.125
146
0.8
147
0.25
176
   133
177
   133
178
   150
271
     3
272
     3
276
     1
288
     1
340
D5
  0
DIMSTYLE
105
D7
330
A
100
AcDbSymbolTableRecord
100
AcDbDimStyleTableRecord
  2
Standard$4
 70
     0
 40
0.0
 41
0.625
 42
0.5
 43
0.375
 44
0.375
 78
     4
 79
     1
140
0.625
141
0.125
146
0.8
147
0.25
173
     1
176
   133
177
   133
178
   150
271
     3
272
     3
276
     1
288
     1
340
D5
343
30
  0
DIMSTYLE
105
D8
330
A
100
AcDbSymbolTableRecord
100
AcDbDimStyleTableRecord
  2
Standard$3
 70
     0
 40
0.0
 41
0.625
 42
0.5
 43
0.375
 44
0.375
 78
     4
 79
     1
140
0.625
141
0.125
146
0.8
147
0.25
176
   133
177
   133
178
   150
271
     3
272
     3
276
     1
288
     1
340
D5
  0
DIMSTYLE
105
D9
330
A
100
AcDbSymbolTableRecord
100
AcDbDimStyleTableRecord
  2
Standard$7
 70
     0
 40
0.0
 41
0.625
 42
0.5
 43
0.375
 44
0.375
 78
     4
 79
     1
140
0.5
141
0.125
146
0.8
147
0.25
176
   133
177
   133
178
   150
271
     3
272
     3
276
     1
289
     0
340
D5
342
30
  0
ENDTAB
  0
TABLE
  2
BLOCK_RECORD
  5
1
330
0
100
AcDbSymbolTable
 70
     9
  0
BLOCK_RECORD
  5
1F
330
1
100
AcDbSymbolTableRecord
100
AcDbBlockTableRecord
  2
*Model_Space
340
22
  0
BLOCK_RECORD
  5
1B
330
1
100
AcDbSymbolTableRecord
100
AcDbBlockTableRecord
  2
*Paper_Space
340
1E
  0
BLOCK_RECORD
  5
23
330
1
100
AcDbSymbolTableRecord
100
AcDbBlockTableRecord
  2
*Paper_Space0
340
26
  0
BLOCK_RECORD
  5
2B
330
1
100
AcDbSymbolTableRecord
100
AcDbBlockTableRecord
  2
_Dot
340
0
  0
BLOCK_RECORD
  5
30
330
1
100
AcDbSymbolTableRecord
100
AcDbBlockTableRecord
  2
_DotSmall
340
0
102
{BLKREFS
331
BE
331
BF
331
CB
331
CC
102
}
  0
BLOCK_RECORD
  5
F5
330
1
100
AcDbSymbolTableRecord
100
AcDbBlockTableRecord
  2
*D5
340
0
  0
BLOCK_RECORD
  5
102
330
1
100
AcDbSymbolTableRecord
100
AcDbBlockTableRecord
  2
*D6
340
0
  0
BLOCK_RECORD
  5
12F
330
1
100
AcDbSymbolTableRecord
100
AcDbBlockTableRecord
  2
*D7
340
0
  0
BLOCK_RECORD
  5
13D
330
1
100
AcDbSymbolTableRecord
100
AcDbBlockTableRecord
  2
*D8
340
0
  0
ENDTAB
  0
ENDSEC
  0
SECTION
  2
BLOCKS
  0
BLOCK
  5
20
330
1F
100
AcDbEntity
  8
0
100
AcDbBlockBegin
  2
*Model_Space
 70
     0
 10
0.0
 20
0.0
 30
0.0
  3
*Model_Space
  1

  0
ENDBLK
  5
21
330
1F
100
AcDbEntity
  8
0
100
AcDbBlockEnd
  0
BLOCK
  5
1C
330
1B
100
AcDbEntity
 67
     1
  8
0
100
AcDbBlockBegin
  2
*Paper_Space
 70
     0
 10
0.0
 20
0.0
 30
0.0
  3
*Paper_Space
  1

  0
ENDBLK
  5
1D
330
1B
100
AcDbEntity
 67
     1
  8
0
100
AcDbBlockEnd
  0
BLOCK
  5
24
330
23
100
AcDbEntity
  8
0
100
AcDbBlockBegin
  2
*Paper_Space0
 70
     0
 10
0.0
 20
0.0
 30
0.0
  3
*Paper_Space0
  1

  0
ENDBLK
  5
25
330
23
100
AcDbEntity
  8
0
100
AcDbBlockEnd
  0
BLOCK
  5
2E
330
2B
100
AcDbEntity
  8
0
100
AcDbBlockBegin
  2
_Dot
 70
     0
 10
0.0
 20
0.0
 30
0.0
  3
_Dot
  1

  0
LWPOLYLINE
  5
2C
330
2B
100
AcDbEntity
  8
L
 62
     0
100
AcDbPolyline
 90
        2
 70
     1
 43
0.5
 10
-0.25
 20
0.0
 42
1.0
 10
0.25
 20
0.0
 42
1.0
  0
LINE
  5
2D
330
2B
100
AcDbEntity
  8
L
 62
     0
370
    -2
100
AcDbLine
 10
-0.5
 20
0.0
 30
0.0
 11
-1.0
 21
0.0
 31
0.0
  0
ENDBLK
  5
2F
330
2B
100
AcDbEntity
  8
0
100
AcDbBlockEnd
  0
BLOCK
  5
32
330
30
100
AcDbEntity
  8
0
 48
0.116666
100
AcDbBlockBegin
  2
_DotSmall
 70
     0
 10
0.0
 20
0.0
 30
0.0
  3
_DotSmall
  1

  0
LWPOLYLINE
  5
31
330
30
100
AcDbEntity
  8
0
  6
ByBlock
 62
     0
100
AcDbPolyline
 90
        2
 70
     1
 43
0.5
 10
-0.0625
 20
0.0
 42
1.0
 10
0.0625
 20
0.0
 42
1.0
  0
ENDBLK
  5
33
330
30
100
AcDbEntity
  8
0
 48
0.116666
100
AcDbBlockEnd
  0
BLOCK
  5
100
330
F5
100
AcDbEntity
  8
0
100
AcDbBlockBegin
  2
*D5
 70
     1
 10
0.0
 20
0.0
 30
0.0
  3
*D5
  1

  0
LINE
  5
10F
330
F5
100
AcDbEntity
  8
MAIN
 62
     0
370
    -2
100
AcDbLine
 10
5.870540056905674
 20
5.87732441164333
 30
0.0
 11
5.870540056905674
 21
6.637359920695423
 31
0.0
  0
LINE
  5
110
330
F5
100
AcDbEntity
  8
MAIN
 62
     0
370
    -2
100
AcDbLine
 10
8.030540056906211
 20
5.877324411642307
 30
0.0
 11
8.030540056906211
 21
6.637359920695423
 31
0.0
  0
LINE
  5
111
330
F5
100
AcDbEntity
  8
MAIN
 62
     0
370
    -2
100
AcDbLine
 10
5.897540056905675
 20
6.610359920695422
 30
0.0
 11
6.901040056905943
 21
6.610359920695422
 31
0.0
  0
LINE
  5
112
330
F5
100
AcDbEntity
  8
MAIN
 62
     0
370
    -2
100
AcDbLine
 10
8.003540056906212
 20
6.610359920695422
 30
0.0
 11
7.000040056905943
 21
6.610359920695422
 31
0.0
  0
SOLID
  5
113
330
F5
100
AcDbEntity
  8
MAIN
 62
     0
100
AcDbTrace
 10
5.897540056905675
 20
6.614859920695423
 30
0.0
 11
5.897540056905675
 21
6.605859920695422
 31
0.0
 12
5.870540056905674
 22
6.610359920695422
 32
0.0
 13
5.870540056905674
 23
6.610359920695422
 33
0.0
  0
SOLID
  5
114
330
F5
100
AcDbEntity
  8
MAIN
 62
     0
100
AcDbTrace
 10
8.003540056906212
 20
6.614859920695423
 30
0.0
 11
8.003540056906212
 21
6.605859920695422
 31
0.0
 12
8.030540056906211
 22
6.610359920695422
 32
0.0
 13
8.030540056906211
 23
6.610359920695422
 33
0.0
  0
MTEXT
  5
115
330
F5
100
AcDbEntity
  8
MAIN
 62
     0
100
AcDbMText
 10
6.950540056905943
 20
6.610359920695422
 30
0.0
 40
0.027
 41
0.0
 71
     5
 72
     1
  1
\A1;2.16
 73
     1
 44
1.0
1001
ACAD
1000
MTEXTBEGIN
1070
    73
1070
     1
1070
    44
1040
1.0
1070
    74
1070
     0
1000
MTEXTEND
  0
POINT
  5
116
330
F5
100
AcDbEntity
  8
Defpoints
 62
     0
100
AcDbPoint
 10
5.870540056905674
 20
5.86794941164333
 30
0.0
  0
POINT
  5
117
330
F5
100
AcDbEntity
  8
Defpoints
 62
     0
100
AcDbPoint
 10
8.030540056906211
 20
5.867949411642307
 30
0.0
  0
POINT
  5
118
330
F5
100
AcDbEntity
  8
Defpoints
 62
     0
100
AcDbPoint
 10
8.030540056906211
 20
6.610359920695422
 30
0.0
  0
ENDBLK
  5
101
330
F5
100
AcDbEntity
  8
0
100
AcDbBlockEnd
  0
BLOCK
  5
10D
330
102
100
AcDbEntity
  8
0
100
AcDbBlockBegin
  2
*D6
 70
     1
 10
0.0
 20
0.0
 30
0.0
  3
*D6
  1

  0
LINE
  5
119
330
102
100
AcDbEntity
  8
MAIN
 62
     0
370
    -2
100
AcDbLine
 10
6.667800570927665
 20
6.264625156036508
 30
0.0
 11
5.305911642418204
 21
6.264625156036509
 31
0.0
  0
LINE
  5
11A
330
102
100
AcDbEntity
  8
MAIN
 62
     0
370
    -2
100
AcDbLine
 10
5.881165056905656
 20
4.662783447937322
 30
0.0
 11
5.305911642418203
 21
4.662783447937322
 31
0.0
  0
LINE
  5
11B
330
102
100
AcDbEntity
  8
MAIN
 62
     0
370
    -2
100
AcDbLine
 10
5.332911642418204
 20
6.237625156036509
 30
0.0
 11
5.332911642418203
 21
5.490704301986916
 31
0.0
  0
LINE
  5
11C
330
102
100
AcDbEntity
  8
MAIN
 62
     0
370
    -2
100
AcDbLine
 10
5.332911642418203
 20
4.689783447937322
 30
0.0
 11
5.332911642418203
 21
5.436704301986916
 31
0.0
  0
SOLID
  5
11D
330
102
100
AcDbEntity
  8
MAIN
 62
     0
100
AcDbTrace
 10
5.328411642418203
 20
6.237625156036509
 30
0.0
 11
5.337411642418204
 21
6.237625156036509
 31
0.0
 12
5.332911642418204
 22
6.264625156036509
 32
0.0
 13
5.332911642418204
 23
6.264625156036509
 33
0.0
  0
SOLID
  5
11E
330
102
100
AcDbEntity
  8
MAIN
 62
     0
100
AcDbTrace
 10
5.328411642418203
 20
4.689783447937322
 30
0.0
 11
5.337411642418203
 21
4.689783447937322
 31
0.0
 12
5.332911642418203
 22
4.662783447937322
 32
0.0
 13
5.332911642418203
 23
4.662783447937322
 33
0.0
  0
MTEXT
  5
11F
330
102
100
AcDbEntity
  8
MAIN
 62
     0
100
AcDbMText
 10
5.332911642418202
 20
5.463704301986917
 30
0.0
 40
0.027
 41
0.0
 71
     5
 72
     1
  1
\A1;1.60
 73
     1
 44
1.0
1001
ACAD
1000
MTEXTBEGIN
1070
    73
1070
     1
1070
    44
1040
1.0
1070
    74
1070
     0
1000
MTEXTEND
  0
POINT
  5
120
330
102
100
AcDbEntity
  8
Defpoints
 62
     0
100
AcDbPoint
 10
6.677175570927666
 20
6.264625156036508
 30
0.0
  0
POINT
  5
121
330
102
100
AcDbEntity
  8
Defpoints
 62
     0
100
AcDbPoint
 10
5.890540056905656
 20
4.662783447937322
 30
0.0
  0
POINT
  5
122
330
102
100
AcDbEntity
  8
Defpoints
 62
     0
100
AcDbPoint
 10
5.332911642418203
 20
4.662783447937322
 30
0.0
  0
ENDBLK
  5
10E
330
102
100
AcDbEntity
  8
0
100
AcDbBlockEnd
  0
BLOCK
  5
13A
330
12F
100
AcDbEntity
  8
0
100
AcDbBlockBegin
  2
*D7
 70
     1
 10
0.0
 20
0.0
 30
0.0
  3
*D7
  1

  0
LINE
  5
130
330
12F
100
AcDbEntity
  8
0
 62
     0
370
    -2
100
AcDbLine
 10
5.870540056905674
 20
5.93044941164333
 30
0.0
 11
5.870540056905674
 21
6.954832001936824
 31
0.0
  0
LINE
  5
131
330
12F
100
AcDbEntity
  8
0
 62
     0
370
    -2
100
AcDbLine
 10
8.030540056906211
 20
5.930449411642307
 30
0.0
 11
8.030540056906211
 21
6.954832001936824
 31
0.0
  0
LINE
  5
132
330
12F
100
AcDbEntity
  8
0
 62
     0
370
    -2
100
AcDbLine
 10
6.050540056905674
 20
6.774832001936824
 30
0.0
 11
6.620540056905943
 21
6.774832001936824
 31
0.0
  0
LINE
  5
133
330
12F
100
AcDbEntity
  8
0
 62
     0
370
    -2
100
AcDbLine
 10
7.850540056906211
 20
6.774832001936824
 30
0.0
 11
7.280540056905943
 21
6.774832001936824
 31
0.0
  0
SOLID
  5
134
330
12F
100
AcDbEntity
  8
0
 62
     0
100
AcDbTrace
 10
6.050540056905674
 20
6.804832001936825
 30
0.0
 11
6.050540056905674
 21
6.744832001936824
 31
0.0
 12
5.870540056905674
 22
6.774832001936824
 32
0.0
 13
5.870540056905674
 23
6.774832001936824
 33
0.0
  0
SOLID
  5
135
330
12F
100
AcDbEntity
  8
0
 62
     0
100
AcDbTrace
 10
7.850540056906211
 20
6.804832001936825
 30
0.0
 11
7.850540056906211
 21
6.744832001936824
 31
0.0
 12
8.030540056906211
 22
6.774832001936824
 32
0.0
 13
8.030540056906211
 23
6.774832001936824
 33
0.0
  0
MTEXT
  5
136
330
12F
100
AcDbEntity
  8
0
 62
     0
100
AcDbMText
 10
6.950540056905943
 20
6.774832001936824
 30
0.0
 40
0.18
 41
0.0
 71
     5
 72
     1
  1
\A1;2.16
 73
     1
 44
1.0
1001
ACAD
1000
MTEXTBEGIN
1070
    73
1070
     1
1070
    44
1040
1.0
1070
    74
1070
     0
1000
MTEXTEND
  0
POINT
  5
137
330
12F
100
AcDbEntity
  8
Defpoints
 62
     0
100
AcDbPoint
 10
5.870540056905674
 20
5.86794941164333
 30
0.0
  0
POINT
  5
138
330
12F
100
AcDbEntity
  8
Defpoints
 62
     0
100
AcDbPoint
 10
8.030540056906211
 20
5.867949411642307
 30
0.0
  0
POINT
  5
139
330
12F
100
AcDbEntity
  8
Defpoints
 62
     0
100
AcDbPoint
 10
8.030540056906211
 20
6.774832001936824
 30
0.0
  0
ENDBLK
  5
13B
330
12F
100
AcDbEntity
  8
0
100
AcDbBlockEnd
  0
BLOCK
  5
148
330
13D
100
AcDbEntity
  8
0
100
AcDbBlockBegin
  2
*D8
 70
     1
 10
0.0
 20
0.0
 30
0.0
  3
*D8
  1

  0
LINE
  5
13E
330
13D
100
AcDbEntity
  8
0
 62
     0
370
    -2
100
AcDbLine
 10
5.828040056905656
 20
4.662783447937322
 30
0.0
 11
4.984619016776051
 21
4.662783447937322
 31
0.0
  0
LINE
  5
13F
330
13D
100
AcDbEntity
  8
0
 62
     0
370
    -2
100
AcDbLine
 10
6.618040056916608
 20
6.264910181169074
 30
0.0
 11
4.984619016776052
 21
6.264910181169075
 31
0.0
  0
LINE
  5
140
330
13D
100
AcDbEntity
  8
0
 62
     0
370
    -2
100
AcDbLine
 10
5.16461901677605
 20
4.842783447937321
 30
0.0
 11
5.16461901677605
 21
5.283846814553199
 31
0.0
  0
LINE
  5
141
330
13D
100
AcDbEntity
  8
0
 62
     0
370
    -2
100
AcDbLine
 10
5.164619016776051
 20
6.084910181169076
 30
0.0
 11
5.16461901677605
 21
5.643846814553199
 31
0.0
  0
SOLID
  5
142
330
13D
100
AcDbEntity
  8
0
 62
     0
100
AcDbTrace
 10
5.13461901677605
 20
4.842783447937321
 30
0.0
 11
5.194619016776051
 21
4.842783447937321
 31
0.0
 12
5.16461901677605
 22
4.662783447937322
 32
0.0
 13
5.16461901677605
 23
4.662783447937322
 33
0.0
  0
SOLID
  5
143
330
13D
100
AcDbEntity
  8
0
 62
     0
100
AcDbTrace
 10
5.134619016776051
 20
6.084910181169076
 30
0.0
 11
5.194619016776051
 21
6.084910181169076
 31
0.0
 12
5.164619016776051
 22
6.264910181169075
 32
0.0
 13
5.164619016776051
 23
6.264910181169075
 33
0.0
  0
MTEXT
  5
144
330
13D
100
AcDbEntity
  8
0
 62
     0
100
AcDbMText
 10
5.164619016776049
 20
5.4638468145532
 30
0.0
 40
0.18
 41
0.0
 71
     5
 72
     1
  1
\A1;1.60
 73
     1
 44
1.0
1001
ACAD
1000
MTEXTBEGIN
1070
    73
1070
     1
1070
    44
1040
1.0
1070
    74
1070
     0
1000
MTEXTEND
  0
POINT
  5
145
330
13D
100
AcDbEntity
  8
Defpoints
 62
     0
100
AcDbPoint
 10
5.890540056905656
 20
4.662783447937322
 30
0.0
  0
POINT
  5
146
330
13D
100
AcDbEntity
  8
Defpoints
 62
     0
100
AcDbPoint
 10
6.680540056916608
 20
6.264910181169074
 30
0.0
  0
POINT
  5
147
330
13D
100
AcDbEntity
  8
Defpoints
 62
     0
100
AcDbPoint
 10
5.164619016776051
 20
6.264910181169075
 30
0.0
  0
ENDBLK
  5
149
330
13D
100
AcDbEntity
  8
0
100
AcDbBlockEnd
  0
ENDSEC
  0
SECTION
  2
ENTITIES
  0
LWPOLYLINE
  5
ED
330
1F
100
AcDbEntity
  8
MAIN
 62
     5
 48
0.116666
100
AcDbPolyline
 90
       60
 70
     1
 43
0.0
 10
6.677175570927666
 20
6.264625156036508
 42
0.1389773980813794
 10
5.877331334164246
 20
5.882967056050624
 42
0.2155996239678436
 10
5.870540056905674
 20
5.86794941164333
 10
5.870540056905674
 20
4.682783447937303
 42
0.4142135623730797
 10
5.890540056905656
 20
4.662783447937322
 10
8.010540056905092
 20
4.662783447937322
 42
0.4142135623728365
 10
8.030540056905074
 20
4.682783447937303
 10
8.030540056906211
 20
5.867949411642307
 42
0.2155996239678436
 10
8.023748779632178
 20
5.882967056032093
 42
0.1389773980817277
 10
7.223904542886266
 20
6.2646251560597
 42
0.464633254312887
 10
7.200540056905374
 20
6.244910181190725
 10
7.200540056905602
 20
6.10993788534386
 42
0.4142135623730951
 10
7.210540056905593
 20
6.099937885343869
 10
7.280540056905302
 20
6.099937885343983
 42
-0.4142135623797547
 10
7.29054005690552
 20
6.089937885343992
 10
7.290540056905292
 20
6.089937885343992
 10
7.290540056904838
 20
5.984937885343974
 42
-0.4142135623730951
 10
7.280540056904847
 20
5.974937885343983
 10
7.210540056905593
 20
5.974937885343983
 42
0.4142135623797547
 10
7.200540056905374
 20
5.964937885343992
 10
7.200540056905602
 20
5.964937885343992
 10
7.200540056905829
 20
5.729258156221412
 42
0.0716350180418754
 10
7.201759091858612
 20
5.720793166501657
 10
7.302767499822785
 20
5.377364579424401
 42
0.3327064143887904
 10
7.389110394964127
 20
5.312759548583748
 10
7.890540056905884
 20
5.312759548583862
 42
-0.4142135623733843
 10
7.950540056905829
 20
5.252759548583917
 10
7.950540056905374
 20
4.922783447937312
 42
-0.4142135623730951
 10
7.920540056905402
 20
4.89278344793734
 10
7.860540056905229
 20
4.89278344793734
 42
0.9999999999999998
 10
7.860540056905229
 20
4.82278344793729
 10
7.940540056905611
 20
4.82278344793729
 42
-0.4142135623740464
 10
7.950540056905602
 20
4.812783447937299
 10
7.950540056905374
 20
4.752783447937353
 42
-0.4142135623722627
 10
7.940540056905383
 20
4.742783447937362
 10
5.960540056905365
 20
4.742783447937362
 42
-0.4142135623740464
 10
5.950540056905374
 20
4.752783447937353
 10
5.950540056905374
 20
4.812783447937299
 42
-0.4142135623722627
 10
5.960540056905365
 20
4.82278344793729
 10
6.04054005690552
 20
4.822783447937517
 42
0.9999999999999998
 10
6.04054005690552
 20
4.892783447937453
 10
5.980540056905574
 20
4.892783447937567
 42
-0.4142135623728932
 10
5.950540056905602
 20
4.92278344793754
 10
5.950540056905374
 20
5.252759548583803
 42
-0.4142135623735479
 10
6.01054005690532
 20
5.312759548583862
 10
6.511969718846167
 20
5.312759548583976
 42
0.3327064143886522
 10
6.598312613987509
 20
5.377364579424629
 10
6.699321021952819
 20
5.720793166504385
 42
0.071635018041338
 10
6.700540056905602
 20
5.72925815622414
 10
6.700540056905602
 20
5.964937885344106
 42
0.4142135623730951
 10
6.690540056905611
 20
5.974937885344097
 10
6.62054005690522
 20
5.974937885343983
 42
-0.4142135623664355
 10
6.610540056905456
 20
5.984937885343974
 10
6.610540056905229
 20
5.984937885343974
 10
6.610540056905229
 20
6.089937885343992
 10
6.610540056905456
 20
6.089937885343992
 42
-0.4142135623664355
 10
6.62054005690522
 20
6.099937885343983
 10
6.690540056905838
 20
6.099937885343983
 42
0.4142135623664355
 10
6.700540056905829
 20
6.109937885343974
 10
6.70054005690492
 20
6.244910181190611
 42
0.464633254312887
  0
LWPOLYLINE
  5
EE
330
1F
100
AcDbEntity
  8
MAIN
 62
     5
 48
0.116666
100
AcDbPolyline
 90
       19
 70
     1
 43
0.0
 10
6.1827657745958
 20
5.562810410383626
 42
-0.3246420723819696
 10
6.132116749824554
 20
5.443926648364872
 42
0.5602544463421797
 10
6.131645899560062
 20
5.392759548584017
 10
6.502216737834778
 20
5.392759548584017
 42
0.3327064143881545
 10
6.530997702881968
 20
5.414294558864234
 10
6.623101987000218
 20
5.727449124865692
 42
0.0716350180413188
 10
6.625540056905784
 20
5.744379104305203
 10
6.625540056905784
 20
5.839937885343992
 42
0.3419987130854363
 10
6.58054005689798
 20
5.898032635476788
 42
-0.3419987130847159
 10
6.535540056905183
 20
5.956127385667905
 10
6.535540056904956
 20
6.069766034867647
 42
0.5131294513216944
 10
6.456348137712957
 20
6.126613816158787
 42
0.090201101480676
 10
5.972560258927678
 20
5.858852223029593
 42
0.2250316757024509
 10
5.950540056904237
 20
5.81240295020796
 10
5.95054005690401
 20
5.641096391008709
 42
0.6539586713348955
 10
6.000897199760693
 20
5.619060358365963
 42
-0.1122893637422387
 10
6.043187115728706
 20
5.643396186653767
 42
-1.000000000000668
 10
6.057892998081406
 20
5.595607725449944
 42
2.294111753594267
 10
6.13402681200916
 20
5.551651847484485
 42
-1.000000000003231
  0
LWPOLYLINE
  5
EF
330
1F
100
AcDbEntity
  8
MAIN
 62
     5
 48
0.116666
100
AcDbPolyline
 90
       19
 70
     1
 43
0.0
 10
7.92851985490217
 20
5.85885222301254
 42
0.0902011014845125
 10
7.444731976105295
 20
6.126613816182889
 42
0.5131294513226034
 10
7.365540056905111
 20
6.069766034867647
 10
7.365540056905111
 20
5.95612738566745
 42
-0.3419987130823289
 10
7.320540056897989
 20
5.898032635535223
 42
0.3419987130806174
 10
7.275540056905875
 20
5.839937885344106
 10
7.27554005690542
 20
5.744379104302247
 42
0.0716350180422711
 10
7.277978126810985
 20
5.727449124862509
 10
7.370082410928326
 20
5.414294558864234
 42
0.3327064143881542
 10
7.398863375975516
 20
5.392759548584017
 10
7.769434214250232
 20
5.392759548584017
 42
0.5602544463400644
 10
7.768963363985967
 20
5.443926648364872
 42
-0.3246420723818575
 10
7.718314339214494
 20
5.56281041038374
 42
-1.000000000002216
 10
7.767053301801361
 20
5.551651847484599
 42
2.294111753594268
 10
7.843187115729115
 20
5.595607725450058
 42
-1.000000000000669
 10
7.857892998081815
 20
5.64339618665388
 42
-0.1122893637403313
 10
7.900182914048237
 20
5.619060358365736
 42
0.6539586713302583
 10
7.950540056905374
 20
5.641096391009618
 10
7.950540056905602
 20
5.812402950174195
 42
0.2250316756820866
  0
TEXT
  5
F2
330
1F
100
AcDbEntity
  8
tx
 48
0.116666
100
AcDbText
 10
5.05390851833787
 20
3.968933548985571
 30
0.0
 40
0.09375
  1
SCALE : 1"=1"
  7
BLD
 11
5.05390851833787
 21
4.062683548985571
 31
0.0
100
AcDbText
 73
     3
  0
TEXT
  5
F3
330
1F
100
AcDbEntity
  8
MAIN
 62
     3
 48
0.116666
100
AcDbText
 10
5.05390851833787
 20
4.250155234347541
 30
0.0
 40
0.1125
  1
1/4 ROUND RADIUS LED PART #1996
  7
BLD
100
AcDbText
  0
LWPOLYLINE
  5
F4
330
1F
100
AcDbEntity
  8
MAIN
 62
     5
 48
0.116666
100
AcDbPolyline
 90
        2
 70
     0
 43
0.01875
 10
4.960172675656771
 20
4.156419391666556
 10
8.494363640956159
 20
4.156419391666556
  0
DIMENSION
  5
12E
330
1F
100
AcDbEntity
  8
0
100
AcDbDimension
  2
*D7
 10
8.030540056906211
 20
6.774832001936824
 30
0.0
 11
6.950540056905943
 21
6.774832001936824
 31
0.0
 70
    32
 71
     5
 42
2.160000000000536
  3
Standard
100
AcDbAlignedDimension
 13
5.870540056905674
 23
5.86794941164333
 33
0.0
 14
8.030540056906211
 24
5.867949411642307
 34
0.0
100
AcDbRotatedDimension
  0
DIMENSION
  5
13C
330
1F
100
AcDbEntity
  8
0
100
AcDbDimension
  2
*D8
 10
5.164619016776051
 20
6.264910181169075
 30
0.0
 11
5.164619016776049
 21
5.4638468145532
 31
0.0
 70
    32
 71
     5
 42
1.602126733231753
  3
Standard
100
AcDbAlignedDimension
 13
5.890540056905656
 23
4.662783447937322
 33
0.0
 14
6.680540056916608
 24
6.264910181169074
 34
0.0
 50
90.0
100
AcDbRotatedDimension
  0
ENDSEC
  0
SECTION
  2
OBJECTS
  0
DICTIONARY
  5
C
330
0
100
AcDbDictionary
281
     1
  3
ACAD_COLOR
350
B2
  3
ACAD_GROUP
350
D
  3
ACAD_LAYOUT
350
1A
  3
ACAD_MATERIAL
350
B1
  3
ACAD_MLINESTYLE
350
17
  3
ACAD_PLOTSETTINGS
350
19
  3
ACAD_PLOTSTYLENAME
350
E
  3
ACAD_TABLESTYLE
350
B3
  3
ACDBHEADERROUNDTRIPXREC
350
14F
  3
AcDbVariableDictionary
350
124
  0
DICTIONARY
  5
DA
330
2
100
AcDbDictionary
280
     1
281
     1
  3
ACAD_LAYERSTATES
360
DB
  0
DICTIONARY
  5
B2
102
{ACAD_REACTORS
330
C
102
}
330
C
100
AcDbDictionary
281
     1
  0
DICTIONARY
  5
D
102
{ACAD_REACTORS
330
C
102
}
330
C
100
AcDbDictionary
281
     1
  0
DICTIONARY
  5
1A
102
{ACAD_REACTORS
330
C
102
}
330
C
100
AcDbDictionary
281
     1
  3
Layout1
350
1E
  3
Layout2
350
26
  3
Model
350
22
  0
DICTIONARY
  5
B1
102
{ACAD_REACTORS
330
C
102
}
330
C
100
AcDbDictionary
281
     1
  0
DICTIONARY
  5
17
102
{ACAD_REACTORS
330
C
102
}
330
C
100
AcDbDictionary
281
     1
  3
Standard
350
18
  0
DICTIONARY
  5
19
102
{ACAD_REACTORS
330
C
102
}
330
C
100
AcDbDictionary
281
     1
  0
ACDBDICTIONARYWDFLT
  5
E
102
{ACAD_REACTORS
330
C
102
}
330
C
100
AcDbDictionary
281
     1
  3
Normal
350
F
100
AcDbDictionaryWithDefault
340
F
  0
DICTIONARY
  5
B3
102
{ACAD_REACTORS
330
C
102
}
330
C
100
AcDbDictionary
281
     1
  3
Standard
350
B4
  0
DICTIONARY
  5
14F
102
{ACAD_REACTORS
330
C
102
}
330
C
100
AcDbDictionary
281
     1
  0
DICTIONARY
  5
124
102
{ACAD_REACTORS
330
C
102
}
330
C
100
AcDbDictionary
281
     1
  3
CTABLESTYLE
350
125
  3
DIMASSOC
350
14C
  3
PROJECTNAME
350
14D
  0
DICTIONARY
  5
DB
102
{ACAD_REACTORS
330
DA
102
}
330
DA
100
AcDbDictionary
281
     1
  0
LAYOUT
  5
1E
102
{ACAD_XDICTIONARY
360
150
102
}
102
{ACAD_REACTORS
330
1A
102
}
330
1A
100
AcDbPlotSettings
  1

  2
EPSON Stylus COLOR 3000
  4

  6

 40
0.0
 41
0.0
 42
0.0
 43
0.0
 44
0.0
 45
0.0
 46
0.0
 47
0.0
 48
0.0
 49
0.0
140
0.0
141
0.0
142
1.0
143
1.0
 70
   688
 72
     0
 73
     0
 74
     5
  7

 75
    16
147
1.0
148
0.0
149
0.0
100
AcDbLayout
  1
Layout1
 70
     1
 71
     1
 10
0.0
 20
0.0
 11
12.0
 21
9.0
 12
0.0
 22
0.0
 32
0.0
 14
1.000000000000000E+20
 24
1.000000000000000E+20
 34
1.000000000000000E+20
 15
-1.000000000000000E+20
 25
-1.000000000000000E+20
 35
-1.000000000000000E+20
146
0.0
 13
0.0
 23
0.0
 33
0.0
 16
1.0
 26
0.0
 36
0.0
 17
0.0
 27
1.0
 37
0.0
 76
     0
330
1B
  0
LAYOUT
  5
26
102
{ACAD_XDICTIONARY
360
154
102
}
102
{ACAD_REACTORS
330
1A
102
}
330
1A
100
AcDbPlotSettings
  1

  2
EPSON Stylus COLOR 3000
  4

  6

 40
0.0
 41
0.0
 42
0.0
 43
0.0
 44
0.0
 45
0.0
 46
0.0
 47
0.0
 48
0.0
 49
0.0
140
0.0
141
0.0
142
1.0
143
1.0
 70
   688
 72
     0
 73
     0
 74
     5
  7

 75
    16
147
1.0
148
0.0
149
0.0
100
AcDbLayout
  1
Layout2
 70
     1
 71
     2
 10
0.0
 20
0.0
 11
12.0
 21
9.0
 12
0.0
 22
0.0
 32
0.0
 14
0.0
 24
0.0
 34
0.0
 15
0.0
 25
0.0
 35
0.0
146
0.0
 13
0.0
 23
0.0
 33
0.0
 16
1.0
 26
0.0
 36
0.0
 17
0.0
 27
1.0
 37
0.0
 76
     0
330
23
  0
LAYOUT
  5
22
102
{ACAD_XDICTIONARY
360
152
102
}
102
{ACAD_REACTORS
330
1A
102
}
330
1A
100
AcDbPlotSettings
  1

  2
EPSON Stylus COLOR 3000
  4

  6

 40
0.0
 41
0.0
 42
0.0
 43
0.0
 44
0.0
 45
0.0
 46
0.0
 47
0.0
 48
0.0
 49
0.0
140
0.0
141
0.0
142
1.0
143
1.0
 70
  1712
 72
     0
 73
     0
 74
     0
  7

 75
     0
147
1.0
148
0.0
149
0.0
100
AcDbLayout
  1
Model
 70
     1
 71
     0
 10
0.0
 20
0.0
 11
12.0
 21
9.0
 12
0.0
 22
0.0
 32
0.0
 14
0.0
 24
0.0
 34
0.0
 15
0.0
 25
0.0
 35
0.0
146
0.0
 13
0.0
 23
0.0
 33
0.0
 16
1.0
 26
0.0
 36
0.0
 17
0.0
 27
1.0
 37
0.0
 76
     0
330
1F
  0
MLINESTYLE
  5
18
102
{ACAD_REACTORS
330
17
102
}
330
17
100
AcDbMlineStyle
  2
STANDARD
 70
     0
  3

 62
   256
 51
90.0
 52
90.0
 71
     2
 49
0.5
 62
   256
  6
BYLAYER
 49
-0.5
 62
   256
  6
BYLAYER
  0
ACDBPLACEHOLDER
  5
F
102
{ACAD_REACTORS
330
E
102
}
330
E
  0
TABLESTYLE
  5
B4
102
{ACAD_REACTORS
330
B3
102
}
330
B3
100
AcDbTableStyle
  3
Standard
 70
     0
 71
     0
 40
0.06
 41
0.06
280
     0
281
     0
  7
Standard
140
0.18
170
     2
 62
     0
 63
     7
283
     0
274
    -2
284
     1
 64
     0
275
    -2
285
     1
 65
     0
276
    -2
286
     1
 66
     0
277
    -2
287
     1
 67
     0
278
    -2
288
     1
 68
     0
279
    -2
289
     1
 69
     0
  7
Standard
140
0.25
170
     5
 62
     0
 63
     7
283
     0
274
    -2
284
     1
 64
     0
275
    -2
285
     1
 65
     0
276
    -2
286
     1
 66
     0
277
    -2
287
     1
 67
     0
278
    -2
288
     1
 68
     0
279
    -2
289
     1
 69
     0
  7
Standard
140
0.18
170
     5
 62
     0
 63
     7
283
     0
274
    -2
284
     1
 64
     0
275
    -2
285
     1
 65
     0
276
    -2
286
     1
 66
     0
277
    -2
287
     1
 67
     0
278
    -2
288
     1
 68
     0
279
    -2
289
     1
 69
     0
  0
DICTIONARYVAR
  5
125
102
{ACAD_REACTORS
330
124
102
}
330
124
100
DictionaryVariables
280
     0
  1
STANDARD
  0
DICTIONARYVAR
  5
14C
102
{ACAD_REACTORS
330
124
102
}
330
124
100
DictionaryVariables
280
     0
  1
1
  0
DICTIONARYVAR
  5
14D
102
{ACAD_REACTORS
330
124
102
}
330
124
100
DictionaryVariables
280
     0
  1

  0
DICTIONARY
  5
150
330
1E
100
AcDbDictionary
280
     1
281
     1
  3
ACAD_XREC_ROUNDTRIP
360
151
  0
DICTIONARY
  5
154
330
26
100
AcDbDictionary
280
     1
281
     1
  3
ACAD_XREC_ROUNDTRIP
360
155
  0
DICTIONARY
  5
152
330
22
100
AcDbDictionary
280
     1
281
     1
  3
ACAD_XREC_ROUNDTRIP
360
153
  0
XRECORD
  5
151
102
{ACAD_REACTORS
330
150
102
}
330
150
100
AcDbXrecord
280
     1
102
SHADEPLOT
 70
     0
102
SHADEPLOTRESLEVEL
 70
     2
102
SHADEPLOTCUSTOMDPI
 70
   300
  0
XRECORD
  5
155
102
{ACAD_REACTORS
330
154
102
}
330
154
100
AcDbXrecord
280
     1
102
SHADEPLOT
 70
     0
102
SHADEPLOTRESLEVEL
 70
     2
102
SHADEPLOTCUSTOMDPI
 70
   300
  0
XRECORD
  5
153
102
{ACAD_REACTORS
330
152
102
}
330
152
100
AcDbXrecord
280
     1
102
SHADEPLOT
 70
     0
102
SHADEPLOTRESLEVEL
 70
     2
102
SHADEPLOTCUSTOMDPI
 70
   300
  0
ENDSEC
  0
EOF
